Вторник, 17.10.2017, 23:21
Приветствую Вас Гость
Торт трекер

Главная » 2013 » Август » 23 » Зелёная кобра / Cobra Verde (1987) BDRip | L1

Зелёная кобра / Cobra Verde (1987) BDRip | L1 торрент скачать



Название: Зелёная кобра
Оригинальное название: Cobra Verde
Год выпуска: 1987
Жанр: Драма, приключения
Выпущено: Германия (ФРГ), Гана, Ghana Film Industry Corporation, Werner Herzog Filmproduktion, Zweites Deutsches Fernsehen (ZDF)
Режиссер: Вернер Херцог
В ролях: Клаус Кински, король Ампоу, Жозе Левгой, Сальваторе Базиле, Петер Берлинг, Гильермо Коронел, Нана Агьефи Кваме II, Нана Феду Абодо, Кофи Йеренкьи, Квеси Фасе

О фильме: Авантюрист Франсиску Мануэл да Силва, работающий на оловянных приисках в Бразилии в начале XIX века, убив обидчика, становится бандитом Кобра Верде. Скрываясь от наказания, он попадает в Байию, где, будучи надсмотрщиком на плантациях дона Октавиу Коутинью, соблазняет его дочерей. Разъярённый хозяин отправляет Зелёную Кобру в Западную Африку, в Дагомею на верную смерть, поскольку безумный вождь Дагомеи убивает всех белых. Но предприимчивому Франсиску удаётся не только наладить торговлю рабами, но и победить войско вождя.

Качество: BDRip
Видео: XviD, 1901 Кбит/с, 720x384
Аудио: Русский, английский, немецкий (AC3, 2 ch, 192 Кбит/с)
Размер: 1.92 ГБ
Продолжительность: 01:50:21
Перевод: Любительский одноголосый
Субтитры: Русские, английские

Сравнение с исходником



Из отзывов...
Roger Harrison

Сила на коротком поводке

Фильм Кобра Верде - последняя совместная работа Клауса Кински и режиссёра Вернера Херцога. После этого фильма Кински сказал: Меня больше нет.
Кинолента показывает как власть имущие способны иссушить и погубить тех, кто сильнее, но чьё сердце открыто и благородно. Суровый и сильный одиночка стремится к своей мечте. Ради её достижения он не останавливается ни перед чем. Он не боится смерти, не боится замарать руки. Его даже не гнетёт его одинокий путь. Он так с ним смирился, что его не страшит то, что у него нет ни друзей, ни родных. Одиночка, который бредёт по дороге жизни. Он смотрит лишь только вперёд, не замечая, что в его спину уже направлены копья. Он видит только цель, к которой он движется. Но дойдёт ли он?
Люди пользуются силой и благородством, пользуются теми, кто привык держать слово. В какой-то степени, эта кинолента о том, как силу можно держать на коротком поводке. А потом им же начать душить, когда она исчерпает себя.

Кинопоиск
MediaInfo
Общее
Полное имя : E:VideoKobra.Verde.1987.XviD.BDRipKobra.Verde.1987.DUB.eng.ac3
Формат : AC-3
Формат/Информация : Audio Coding 3
Размер файла : 152 Мбайт
Продолжительность : 1 ч. 50 м.
Режим общего битрейта : Постоянный
Общий поток : 192 Кбит/сек

Аудио
Формат : AC-3
Формат/Информация : Audio Coding 3
Расширение режима : CM (complete main)
Параметр Endianness формата : Big
Продолжительность : 1 ч. 50 м.
Вид битрейта : Постоянный
Битрейт : 192 Кбит/сек
Каналы : 2 канала
Расположение каналов : Front: L R
Частота : 48,0 КГц
Битовая глубина : 16 бит
Метод сжатия : С потерями
Размер потока : 152 Мбайт (100%)

Общее
Полное имя : E:VideoKobra.Verde.1987.XviD.BDRipKobra.Verde.1987.eng.srt
Размер файла : 96,2 Кбайт

Общее
Полное имя : E:VideoKobra.Verde.1987.XviD.BDRipKobra.Verde.1987.Original.ger2.0.ac3
Формат : AC-3
Формат/Информация : Audio Coding 3
Размер файла : 152 Мбайт
Продолжительность : 1 ч. 50 м.
Режим общего битрейта : Постоянный
Общий поток : 192 Кбит/сек

Аудио
Формат : AC-3
Формат/Информация : Audio Coding 3
Расширение режима : CM (complete main)
Параметр Endianness формата : Big
Продолжительность : 1 ч. 50 м.
Вид битрейта : Постоянный
Битрейт : 192 Кбит/сек
Каналы : 2 канала
Расположение каналов : Front: L R
Частота : 48,0 КГц
Битовая глубина : 16 бит
Метод сжатия : С потерями
Размер потока : 152 Мбайт (100%)

Общее
Полное имя : E:VideoKobra.Verde.1987.XviD.BDRipKobra.Verde.1987.rus.srt
Размер файла : 77,1 Кбайт

Общее
Полное имя : E:VideoKobra.Verde.1987.XviD.BDRipKobra.Verde.1987.XviD.BDRip.avi
Формат : AVI
Формат/Информация : Audio Video Interleave
Размер файла : 1,62 Гбайт
Продолжительность : 1 ч. 50 м.
Общий поток : 2102 Кбит/сек
Программа кодирования : VirtualDubMod 1.5.10.2 (build 2540/release)
Библиотека кодирования : VirtualDubMod build 2540/release

Видео
Идентификатор : 0
Формат : MPEG-4 Visual
Профиль формата : Advanced Simple@L5
Параметр BVOP формата : 1
Параметр QPel формата : Нет
Параметр GMC формата : Без точки перехода
Параметр матрицы формата : Default (H.263)
Режим смешивания : Сжатый битовый поток
Идентификатор кодека : XVID
Идентификатор кодека/Подсказка : XviD
Продолжительность : 1 ч. 50 м.
Битрейт : 1901 Кбит/сек
Ширина : 720 пикселей
Высота : 384 пикселя
Соотношение сторон : 1,85:1
Частота кадров : 23,976 кадра/сек
Цветовое пространство : YUV
Субдискретизация насыщенности : 4:2:0
Битовая глубина : 8 бит
Тип развёртки : Прогрессивная
Метод сжатия : С потерями
Бит/(Пиксели*Кадры) : 0.287
Размер потока : 1,47 Гбайт (90%)
Библиотека кодирования : XviD 1.2.1 (UTC 2008-12-04)

Аудио
Идентификатор : 1
Формат : AC-3
Формат/Информация : Audio Coding 3
Расширение режима : CM (complete main)
Параметр Endianness формата : Big
Идентификатор кодека : 2000
Продолжительность : 1 ч. 50 м.
Вид битрейта : Постоянный
Битрейт : 192 Кбит/сек
Каналы : 2 канала
Расположение каналов : Front: L R
Частота : 48,0 КГц
Битовая глубина : 16 бит
Метод сжатия : С потерями
Размер потока : 152 Мбайт (9%)
Выравнивание : Разделение по промежуткам
Продолжительность промежутка : 42 мс. (1,00 видеокадр)
Время предзагрузки промежутка : 500 мс.
Скриншоты



Залил: msltel
Размер: 1.92 GB (2058093950 Bytes)
Категория: Зарубежные фильмы | Просмотров: 160 | Добавил: fregat | Теги: Зелёная, 1987, Cobra, BDRip, Verde, L1, Кобра | Рейтинг: 0.0/0
Страсти Христовы / The Passion of the Christ (2004) BDRip-AVC торрент скачать
Площадь Колумба / Columbus Circle (2012) HDRip-AVC торрент скачать
Ключ от всех дверей / The Skeleton Key (2005) BDRip 1080p торрент скачать
Неприкасаемые / 1+1 / Intouchables (2011) BDRip от HQCLUB торрент скачать
Кобра / Cobra (1986) BDRip 1080р от Freeisland торрент скачать
Квартирантка / The Perfect Roommate (2011) DVDRip-AVC | P торрент скачать
Город зомби / Zombie Town (2007) DVDRip от Хихидок торрент скачать
Всего комментариев: 0
Категории раздела
Зарубежные фильмы [2740]
Сериалы [861]
Телевизор [653]
Мультфильмы [331]
Аниме [232]
Музыка [1653]
Игры [872]
Софт [470]
Книги [432]
Другое [162]

Поиск
Календарь
«  Август 2013  »
ПнВтСрЧтПтСбВс
   1234
567891011
12131415161718
19202122232425
262728293031
Архив записей
Наш опрос
Оцените мой сайт
Всего ответов: 3
Статистика

Онлайн всего: 1
Гостей: 1
Пользователей: 0